Pornoslab.com

Mio Padre E 'Un BossMio Padre E 'Un Boss
My Father Boss


Year: 2009
Country: Italia
Genre: Feature, Foreign, All Sex, Anal, Oral
Length: 83 min
Language: Italian

Directed by: Andrea Brancati
Studio: Pig Italia

Starring: Katia Nobili, Jristal, Valentina Canali, Omar Galanti etc

Description: Sex.


Video Quality: DVDRip
Video Format: AVI
****************
MediaInfo
********
Format / Info: Audio Video Interleave File
size: 705 MiB
Duration: 1h 22mn
Overall bit rate: 1192 Kbps
Writing application: VirtualDubMod 1.5. 10.2 (build 2540/release)
Writing library: VirtualDub build 32842/release

Video
ID: 0
Format: MPEG-4 Visual
Format profile: Advanced Simple @ L5
Format settings, BVOP: 2
Format settings, QPel : No
Format settings, GMC: No warppoints
Format settings, Matrix: Default (H.263)
Codec ID: XVID
Codec ID / Hint: XviD
Duration: 1h 22mn
Bit rate: 1054 Kbps
Width: 512 pixels
Height: 288 pixels
Display aspect ratio: 16:9
Frame rate: 25.000 fps
Color space: YUV
Chroma subsampling: 4:2:0
Bit depth: 8 bits
Scan type: Progressive
Compression mode: Lossy
Bits / (Pixel * Frame): 0.286
Stream size: 624 MiB (88%)
Writing library: XviD 1. 2.1 (UTC 2008-12-04) Audio


ID: 1
Format: MPEG Audio
Format version: Version 1
Format profile: Layer 3
Mode: Joint stereo
Mode extension: MS Stereo
Codec ID: 55
Codec ID / Hint: MP3
Duration: 1h 22mn
Bit rate mode: Constant
Bit rate: 128 Kbps
Channel (s): 2 channels
Sampling rate: 44.1 KHz
Compression mode: Lossy
Stream size: 75.7 MiB (11%)
Alignment: Split accross interleaves
Interleave, duration: 40 ms (1.00 video frame)
Interleave, preload duration: 500 ms
Writing library: LAME3.98.4)

************************************

Enjoy!DO NOT FORGET ABOUT u0026quot;THANK YOUu0026quot;!







We recommend Free live cam gisrls and free sexchat as well as best free porn cam video chat with camster and chaturbate sexy models.