Strict Standards: Accessing static property Torrent::$errors as non static in /home/admin/web/pornoslab.com/public_html/engine/modules/Torrent.php on line 80 X-Art - Gabriella » PornosLab.com - Free Porn Torrent Tracker
Pornoslab.com

X-Art - Gabriella
Video ID: 2
Format: WMV2
Codec ID: WMV2
Codec ID / Info: Windows Media Video 8
Description of the codec: wmv2
Duration: 19mn 22s
Bit rate: 5000 Kbps
Width: 1280 pixels
Height: 720 pixels
Display aspect ratio: 16:9
Frame rate: 23.976 fps
Bit depth: 8 bits
Bits / (Pixel * Frame): 0.226
Stream size: 693 MiB Audio


ID: 1
Format: WMA
Format version: Version 2
Codec ID: 161
Codec ID / Info: Windows Media Audio
Description of the codec: Windows Media Audio V8
Duration : 19mn 22s
Bit rate: 128 Kbps
Channel (s): 2 channels
Sampling rate: 44.1 KHz
Bit depth: 16 bits
Stream size: 17.7 MiB (4%)



We recommend Free live cam gisrls and free sexchat as well as best free porn cam video chat with camster and chaturbate sexy models.